<svg xmlns="http://www.w3.org/2000/svg">
<defs>
<font
   id="FontID1"
   font-variant="normal"
   style="fill-rule:nonzero"
   font-style="normal"
   font-weight="700"
   horiz-origin-x="0"
   horiz-origin-y="0"
   horiz-adv-x="1024"
   vert-origin-x="512"
   vert-origin-y="768"
   vert-adv-y="1024">
	<font-face
   font-family="Arial"
   id="font-face2">
	</font-face>
   <missing-glyph
   id="missing-glyph6"><path
     d="M0 0z"
     id="path4" /></missing-glyph>
   <glyph
   unicode="R"
   horiz-adv-x="722"
   id="glyph10"><path
     d="M73.0998 0l0 715.769 304.444 0c76.4225,0 131.94,-6.36854 166.69,-19.2441 34.6117,-12.8755 62.4394,-35.7192 83.2064,-68.5311 20.9054,-32.9503 31.2889,-70.4693 31.2889,-112.834 0,-53.7173 -15.9214,-98.1587 -47.3487,-133.186 -31.5658,-34.7501 -78.9146,-57.04 -141.769,-66.039 31.4274,-18.275 57.1785,-38.2113 77.5301,-60.0858 20.3517,-21.8746 47.6256,-60.5012 82.2373,-116.157l87.4983 -139.693 -172.92 0 -104.389 155.891c-37.2421,55.6555 -62.5779,90.5441 -76.2841,105.081 -13.5678,14.5369 -28.1047,24.3666 -43.4722,29.9045 -15.3676,5.26097 -39.4573,7.89146 -72.8229,7.89146l-29.2122 0 0 -298.768 -144.677 0zm144.677 413.125l106.881 0c69.3618,0 112.696,2.90738 130.001,8.72214 17.1674,5.81476 30.7352,15.9214 40.5649,30.3198 9.55282,14.3984 14.6753,32.1196 14.6753,53.7173 0,24.0897 -6.50699,43.4722 -19.3825,58.286 -12.8755,14.8138 -31.012,24.2282 -54.548,28.1047 -11.6295,1.52291 -46.795,2.35359 -105.496,2.35359l-112.696 0 0 -181.504z"
     id="path8" /></glyph>
  </font>
  <font
   id="FontID0"
   font-variant="normal"
   style="fill-rule:nonzero"
   font-style="normal"
   font-weight="700"
   horiz-origin-x="0"
   horiz-origin-y="0"
   horiz-adv-x="1024"
   vert-origin-x="512"
   vert-origin-y="768"
   vert-adv-y="1024">
	<font-face
   font-family="Century Gothic"
   id="font-face13">
	</font-face>
   <missing-glyph
   id="missing-glyph17"><path
     d="M0 0z"
     id="path15" /></missing-glyph>
   <glyph
   unicode=" "
   horiz-adv-x="279"
   id="glyph19" />
   <glyph
   unicode="-"
   horiz-adv-x="420"
   id="glyph23"><path
     d="M85.9998 326.655l248.006 0 0 -124.003 -248.006 0 0 124.003z"
     id="path21" /></glyph>
   <glyph
   unicode="0"
   horiz-adv-x="560"
   id="glyph27"><path
     d="M277.842 736.331c52.3206,0 97.4825,-12.8279 135.486,-38.4837 38.0033,-25.848 67.1663,-65.1965 87.8255,-117.998 20.6592,-52.849 31.0368,-126.501 31.0368,-221.005 0,-95.3685 -10.5218,-169.501 -31.5172,-222.687 -20.9955,-52.9932 -49.1496,-92.0054 -84.6546,-116.844 -35.5049,-24.9832 -80.1864,-37.3306 -134.333,-37.3306 -54.0021,0 -99.3562,12.5396 -136.206,37.5228 -36.8022,25.1754 -65.4848,63.1786 -86.3361,114.346 -20.8033,50.9753 -31.3251,123.811 -31.3251,218.17 0,131.834 20.3709,227.491 61.0166,286.634 45.3541,65.1965 108.341,97.6746 189.007,97.6746zm3.50725 -129.816c-23.2055,0 -43.6725,-7.49496 -61.6892,-22.3407 -17.8245,-14.6536 -31.4692,-40.1653 -40.982,-76.3428 -9.32065,-36.1776 -14.1732,-88.9786 -14.1732,-158.643 0,-90.8523 10.81,-153.695 32.4781,-188.335 21.6681,-34.6882 49.6781,-52.0323 84.3663,-52.0323 33.1508,0 59.4792,16.5273 78.9853,49.3418 23.8301,39.829 35.6491,106.179 35.6491,199.337 0,94.3115 -10.6659,159.508 -31.9977,195.157 -21.3318,35.8413 -48.8133,53.858 -82.6367,53.858z"
     id="path25" /></glyph>
   <glyph
   unicode="3"
   horiz-adv-x="560"
   id="glyph31"><path
     d="M190.016 540.982l-131.354 0c6.82233,53.0412 25.848,95.7048 56.9809,128.039 43.6725,44.8256 98.5394,67.3105 164.697,67.3105 58.8066,0 108.341,-18.6413 148.17,-56.1641 39.829,-37.5228 59.8155,-81.8199 59.8155,-133.324 0,-31.8536 -8.8402,-61.0166 -26.1363,-87.3451 -17.5363,-26.3284 -42.7116,-47.6602 -76.0065,-63.9954 43.6725,-13.0201 77.8322,-35.6491 102.335,-68.1753 24.6469,-32.334 36.8022,-70.4814 36.8022,-114.49 0,-64.3317 -23.6379,-119.006 -71.154,-163.832 -47.6602,-44.6815 -108.148,-67.0222 -181.657,-67.0222 -69.6646,0 -126.501,20.9955 -170.51,63.1786 -43.8167,42.1831 -67.9831,99.5003 -72.163,172.192l135.149 0c5.86144,-37.1865 18.8335,-64.668 38.8681,-82.8769 19.9865,-17.9687 45.306,-26.953 75.9585,-26.953 31.8536,0 58.3742,10.1374 79.3697,30.6524 20.9955,20.467 31.4692,45.6424 31.4692,75.1417 0,32.6703 -14.1732,60.1999 -42.4714,82.4926 -28.3463,22.5329 -69.1842,34.2077 -122.514,34.6882l0 117.325c32.8145,2.49832 57.3172,7.68713 73.316,15.3262 16.191,7.68713 28.6826,18.1609 37.667,31.5172 9.03238,13.3564 13.5005,27.4815 13.5005,42.5195 0,19.4581 -6.82233,35.6491 -20.467,48.477 -13.6927,12.8279 -31.6614,19.3139 -53.858,19.3139 -19.5061,0 -37.1385,-5.95753 -53.1373,-17.8245 -15.9988,-11.819 -26.8569,-27.3374 -32.6703,-46.1708z"
     id="path29" /></glyph>
   <glyph
   unicode="1"
   horiz-adv-x="560"
   id="glyph35"><path
     d="M164.505 718.315l204.67 0 0 -718.315 -135.822 0 0 589.843 -147.833 0 78.9853 128.471z"
     id="path33" /></glyph>
   <glyph
   unicode="O"
   horiz-adv-x="839"
   id="glyph39"><path
     d="M421.351 736.331c101.662,0 188.959,-36.8502 261.987,-110.31 73.1719,-73.7004 109.686,-163.352 109.686,-269.002 0,-104.833 -36.0334,-193.668 -108.196,-266.167 -72.163,-72.6915 -159.652,-108.869 -262.516,-108.869 -107.668,0 -197.127,37.1865 -268.473,111.848 -71.3462,74.5172 -106.995,163.015 -106.995,265.494 0,68.6557 16.6715,131.834 49.8222,189.488 33.1508,57.7015 78.8412,103.344 137.023,137.023 57.9898,33.6793 120.64,50.4949 187.662,50.4949zm-1.34525 -133.852c-66.4937,0 -122.322,-22.9653 -167.483,-69.3283 -45.3541,-46.1708 -68.0311,-104.977 -68.0311,-176.131 0,-79.5138 28.4904,-142.356 85.5194,-188.527 44.3452,-36.1776 94.9841,-54.1462 152.301,-54.1462 64.8602,0 120.015,23.3016 165.514,70.1451 45.6904,46.9876 68.5116,104.689 68.5116,173.345 0,68.5116 -23.0134,126.309 -68.992,173.681 -45.8345,47.3239 -101.662,70.9619 -167.339,70.9619z"
     id="path37" /></glyph>
   <glyph
   unicode="H"
   horiz-adv-x="680"
   id="glyph43"><path
     d="M81.4836 718.315l138.705 0 0 -270.971 240.319 0 0 270.971 138.176 0 0 -718.315 -138.176 0 0 314.98 -240.319 0 0 -314.98 -138.705 0 0 718.315z"
     id="path41" /></glyph>
   <glyph
   unicode="N"
   horiz-adv-x="739"
   id="glyph47"><path
     d="M82.4926 718.315l130.825 0 308.206 -472.663 0 472.663 136.639 0 0 -718.315 -131.306 0 -307.678 471.173 0 -471.173 -136.687 0 0 718.315z"
     id="path45" /></glyph>
   <glyph
   unicode="L"
   horiz-adv-x="439"
   id="glyph51"><path
     d="M82.0121 718.315l136.831 0 0 -587.97 199.145 0 0 -130.345 -335.976 0 0 718.315z"
     id="path49" /></glyph>
   <glyph
   unicode="A"
   horiz-adv-x="739"
   id="glyph55"><path
     d="M300.855 718.315l138.657 0 276.304 -718.315 -142.164 0 -56.1641 147.977 -292.832 0 -58.6624 -147.977 -141.972 0 276.833 718.315zm70.2892 -190.497l-95.8009 -246.469 190.977 0 -95.1763 246.469z"
     id="path53" /></glyph>
   <glyph
   unicode="E"
   horiz-adv-x="519"
   id="glyph59"><path
     d="M82.4926 718.315l392.188 0 0 -133.804 -256.366 0 0 -129.865 256.366 0 0 -131.498 -256.366 0 0 -188.815 256.366 0 0 -134.333 -392.188 0 0 718.315z"
     id="path57" /></glyph>
   <glyph
   unicode="S"
   horiz-adv-x="519"
   id="glyph63"><path
     d="M458.489 620.688l-100.99 -89.3629c-35.5049,49.3418 -71.6825,74.1808 -108.485,74.1808 -17.8245,0 -32.5262,-4.8525 -44.0088,-14.5095 -11.3385,-9.51283 -17.0078,-20.3229 -17.0078,-32.334 0,-12.1553 3.9877,-23.4938 12.1553,-34.3519 11.1944,-14.1251 44.4893,-44.9697 100.173,-92.1495 51.9842,-43.6725 83.6937,-71.154 94.6959,-82.4926 27.6256,-28.01 47.3239,-54.8189 58.8066,-80.3305 11.4827,-25.6558 17.3441,-53.5217 17.3441,-83.8378 0,-58.8546 -20.3229,-107.524 -61.0166,-146.007 -40.6457,-38.3396 -93.8311,-57.5094 -159.172,-57.5094 -51.1675,0 -95.6568,12.5396 -133.468,37.5228 -38.0033,25.1754 -70.5295,64.4758 -97.5305,118.142l114.827 69.3283c34.5441,-63.4669 74.1808,-95.1283 119.006,-95.1283 23.4938,0 43.1921,6.82233 59.1909,20.467 15.9988,13.6927 23.8301,29.4994 23.8301,47.372 0,16.3352 -6.00557,32.4781 -18.0167,48.8133 -12.0111,16.3352 -38.4837,41.1742 -79.5138,74.6613 -78.1205,63.8513 -128.663,113.193 -151.485,147.833 -22.677,34.6882 -34.1597,69.1842 -34.1597,103.68 0,49.8222 18.9776,92.4858 56.9809,128.135 37.8591,35.6971 84.7026,53.5217 140.338,53.5217 35.8413,0 69.8568,-8.31171 102.335,-24.8391 32.334,-16.6715 67.3585,-46.9876 105.17,-90.8043z"
     id="path61" /></glyph>
   <glyph
   unicode="W"
   horiz-adv-x="899"
   id="glyph67"><path
     d="M27.3374 718.315l134.813 0 103.536 -458.489 128.327 458.489 113.818 0 129.816 -458.489 102.527 458.489 134.813 0 -161.67 -718.315 -131.306 0 -132.363 464.351 -129.816 -464.351 -129.816 0 -162.679 718.315z"
     id="path65" /></glyph>
   <glyph
   unicode="_"
   horiz-adv-x="500"
   id="glyph71"><path
     d="M-5.81339 -75.1898l511.627 0 0 -49.8222 -511.627 0 0 49.8222z"
     id="path69" /></glyph>
   <glyph
   unicode="P"
   horiz-adv-x="560"
   id="glyph75"><path
     d="M81.4836 718.315l144.999 0c78.5049,0 135.005,-7.30278 169.693,-21.8122 34.6401,-14.5095 62.1697,-37.8591 82.1562,-70.3373 19.9865,-32.334 29.9798,-71.154 29.9798,-116.316 0,-50.1585 -13.1642,-91.8612 -39.3005,-125.012 -26.1843,-33.3429 -61.8334,-56.3563 -106.659,-69.3283 -26.3284,-7.49496 -74.373,-11.3385 -144.038,-11.3385l0 -304.17 -136.831 0 0 718.315zm136.831 -280.821l43.3362 0c34.1597,0 58.0379,2.49832 71.3462,7.35082 13.3564,4.80446 23.8301,12.972 31.5172,24.1664 7.63909,11.1463 11.4827,24.8391 11.4827,40.8379 0,27.6737 -10.81,47.8044 -32.1418,60.4881 -15.7106,9.51283 -44.6815,14.1732 -87.0087,14.1732l-38.5318 0 0 -147.016z"
     id="path73" /></glyph>
   <glyph
   unicode="T"
   horiz-adv-x="420"
   id="glyph79"><path
     d="M11.1463 718.315l397.04 0 0 -134.813 -130.873 0 0 -583.501 -138.657 0 0 583.501 -127.51 0 0 134.813z"
     id="path77" /></glyph>
   <glyph
   unicode="c"
   horiz-adv-x="640"
   id="glyph83"><path
     d="M587.339 423.811l-110.866 -60.9764c-20.7874,21.8583 -41.3228,36.8504 -61.6693,45.3543 -20.2835,8.50394 -44.1575,12.6614 -71.4961,12.6614 -49.8268,0 -90.1417,-14.8661 -120.945,-44.6614 -30.6772,-29.6693 -46.0472,-67.8425 -46.0472,-114.52 0,-45.1654 14.6772,-82.1417 44.3465,-110.866 29.6693,-28.6614 68.5354,-42.9606 116.661,-42.9606 59.6535,0 106.016,20.4724 139.15,61.1654l105.008 -71.811c-57.0079,-73.8898 -137.323,-110.866 -241.134,-110.866 -93.5433,0 -166.677,27.6535 -219.528,83.0236 -52.7874,55.3071 -79.3071,120.126 -79.3071,194.331 0,51.4646 12.8504,98.8346 38.4882,142.173 25.8268,43.1496 61.6693,77.1654 107.654,101.984 46.1732,24.6299 97.7008,37.1654 154.709,37.1654 52.6614,0 99.9685,-10.5197 141.984,-31.4961 42.0157,-21.0394 76.3465,-51.0236 102.992,-89.7008z"
     id="path81" /></glyph>
   <glyph
   unicode="e"
   horiz-adv-x="640"
   id="glyph87"><path
     d="M599.685 227.024l-428.346 0c6.17323,-37.6693 22.8031,-67.7165 49.6378,-90.0157 26.8346,-22.3622 61.0394,-33.5118 102.677,-33.5118 49.8268,0 92.6614,17.5118 128.504,52.3465l112.315 -52.8504c-27.9685,-39.685 -61.4803,-68.9764 -100.661,-88.189 -38.9921,-18.9606 -85.2913,-28.4724 -139.15,-28.4724 -83.3386,0 -151.181,26.3307 -203.465,78.8661 -52.5354,52.6614 -78.6772,118.488 -78.6772,197.48 0,81.1339 26.1417,148.346 78.2992,202.016 52.3465,53.4803 117.858,80.315 196.535,80.315 83.6535,0 151.622,-26.8346 204.157,-80.315 52.3465,-53.6693 78.6772,-124.346 78.6772,-212.22l-0.503937 -25.4488zm-133.858 105.008c-8.8189,29.6063 -26.1417,53.6063 -51.9685,72.315 -25.8268,18.4567 -56,27.8425 -90.2047,27.8425 -36.9764,0 -69.6693,-10.5197 -97.6378,-31.3701 -17.5118,-12.9764 -33.8268,-35.9685 -48.8189,-68.7874l288.63 0z"
     id="path85" /></glyph>
   <glyph
   unicode="n"
   horiz-adv-x="600"
   id="glyph91"><path
     d="M67.3386 531.339l132.85 0 0 -54.3622c30.2992,25.5118 57.6378,43.2126 82.3307,53.0394 24.5039,10.0157 49.6378,14.9921 75.3386,14.9921 52.7874,0 97.4488,-18.5197 134.299,-55.3701 30.9921,-31.1181 46.3622,-77.2913 46.3622,-138.646l0 -350.992 -131.843 0 0 232.819c0,63.4961 -2.83465,105.701 -8.50394,126.488 -5.66929,20.8504 -15.685,36.7244 -29.8583,47.685 -14.1732,10.8346 -31.4961,16.315 -52.2835,16.315 -27.2126,0 -50.3937,-8.94488 -69.6693,-27.1496 -19.3386,-18.0157 -32.8819,-42.9606 -40.378,-74.8346 -3.84252,-16.6299 -5.79528,-52.6614 -5.79528,-107.969l0 -213.354 -132.85 0 0 531.339z"
     id="path89" /></glyph>
   <glyph
   unicode="h"
   horiz-adv-x="600"
   id="glyph95"><path
     d="M67.8425 736.315l132.346 0 0 -258.835c25.9528,22.5512 52.2835,39.3701 78.6142,50.5197 26.3937,11.3386 53.0394,17.0079 80,17.0079 52.8504,0 97.1969,-18.3307 133.354,-54.8661 30.9921,-31.4961 46.3622,-77.7953 46.3622,-139.15l0 -350.992 -131.339 0 0 232.819c0,61.6693 -2.83465,103.37 -8.69291,125.039 -5.98425,21.7953 -16,38.1732 -30.1732,48.8189 -14.1732,10.8346 -31.4961,16.126 -52.2835,16.126 -27.2126,0 -50.3937,-8.94488 -69.6693,-26.7717 -19.3386,-17.8898 -32.8819,-42.3937 -40.378,-73.1969 -3.84252,-16 -5.79528,-52.4724 -5.79528,-109.48l0 -213.354 -132.346 0 0 736.315z"
     id="path93" /></glyph>
   <glyph
   unicode="g"
   horiz-adv-x="660"
   id="glyph99"><path
     d="M460.031 531.339l132.787 0 0 -455.181c0,-89.8268 -18.1417,-155.969 -54.2992,-198.173 -48.5039,-57.3228 -121.512,-85.9843 -219.213,-85.9843 -51.9685,0 -95.811,6.48819 -131.276,19.5276 -35.5276,12.9764 -65.5118,32.126 -89.8898,57.3228 -24.5039,25.3228 -42.4567,56 -54.1102,92.1575l146.961 0c13.0394,-14.9921 29.6693,-26.3307 50.2047,-34.0157 20.4724,-7.68504 44.7874,-11.4646 72.8189,-11.4646 35.8425,0 64.5039,5.48031 86.2992,16.6299 21.8583,11.0236 37.1654,25.3228 46.1732,43.0236 9.00787,17.5118 13.5433,47.811 13.5433,90.8346 -23.5591,-23.4961 -48,-40.378 -73.8898,-50.7087 -25.6378,-10.1417 -54.8031,-15.3071 -87.3071,-15.3071 -71.3071,0 -131.528,25.6378 -180.661,77.1654 -49.1969,51.3386 -73.7008,116.472 -73.7008,195.339 0,84.3465 26.0157,152 78.0472,203.15 47.3071,46.1732 103.496,69.3543 169.008,69.3543 30.6142,0 59.4646,-5.66929 86.6142,-17.0079 27.2126,-11.1496 54.5512,-29.6693 81.8898,-55.3071l0 58.6457zm-138.205 -110.992c-42.0157,0 -76.6614,-13.9843 -104,-42.2047 -27.3386,-28.1575 -41.0079,-63.4961 -41.0079,-106.142 0,-44.3465 13.9843,-80.6929 42.0157,-108.85 27.8425,-28.3465 62.9921,-42.4567 105.323,-42.4567 41.3228,0 75.5276,13.7953 102.362,41.4488 26.8346,27.7165 40.315,63.874 40.315,108.85 0,44.3465 -13.4803,80.189 -40.5039,107.843 -27.0236,27.6535 -61.8583,41.5118 -104.504,41.5118z"
     id="path97" /></glyph>
   <glyph
   unicode="i"
   horiz-adv-x="239"
   id="glyph103"><path
     d="M119.685 749.984c23.3071,0 43.4646,-8.50394 60.3465,-25.3228 16.6299,-17.0079 24.9449,-37.4803 24.9449,-61.4803 0,-23.874 -8.12598,-44.1575 -24.8189,-60.8504 -16.6299,-16.8189 -36.4724,-25.1339 -59.4646,-25.1339 -23.874,0 -44.2205,8.44094 -60.8504,25.6378 -16.8189,17.0079 -25.1969,37.8583 -25.1969,62.1732 0,23.4961 8.37795,43.4646 24.8819,60.1575 16.6299,16.5039 36.6614,24.8189 60.1575,24.8189zm-67.0236 -218.646l133.858 0 0 -531.339 -133.858 0 0 531.339z"
     id="path101" /></glyph>
   <glyph
   unicode="l"
   horiz-adv-x="239"
   id="glyph107"><path
     d="M53.1654 736.315l133.354 0 0 -736.315 -133.354 0 0 736.315z"
     id="path105" /></glyph>
   <glyph
   unicode="a"
   horiz-adv-x="660"
   id="glyph111"><path
     d="M460.031 531.339l132.787 0 0 -531.339 -132.787 0 0 56.189c-26.0157,-24.8819 -52.2205,-42.5197 -78.3622,-53.5433 -26.3307,-10.8346 -54.6772,-16.315 -85.3543,-16.315 -68.6614,0 -128,26.6457 -178.142,79.811 -50.1417,53.1654 -75.1496,119.37 -75.1496,198.551 0,81.9528 24.126,149.165 72.6299,201.638 48.5039,52.3465 107.528,78.6772 176.819,78.6772 31.874,0 61.8583,-6.17323 89.8898,-18.2047 27.9685,-11.9685 53.7953,-30.1102 77.6693,-54.1102l0 58.6457zm-140.22 -109.48c-41.3228,0 -75.6535,-14.5512 -102.992,-43.7165 -27.3386,-29.1654 -41.0079,-66.4567 -41.0079,-112 0,-45.9843 13.8583,-83.6535 41.7008,-113.323 27.8425,-29.6693 62.1732,-44.4724 102.803,-44.4724 42.0157,0 76.8504,14.6772 104.504,43.8425 27.6535,28.9764 41.5118,67.1496 41.5118,114.457 0,46.1732 -13.8583,83.7165 -41.5118,112.189 -27.6535,28.6614 -62.6772,43.0236 -105.008,43.0236z"
     id="path109" /></glyph>
   <glyph
   unicode="d"
   horiz-adv-x="660"
   id="glyph115"><path
     d="M460.031 736.315l132.787 0 0 -736.315 -132.787 0 0 56.189c-26.0157,-24.8819 -52.2205,-42.5197 -78.3622,-53.5433 -26.3307,-10.8346 -54.6772,-16.315 -85.3543,-16.315 -68.6614,0 -128,26.6457 -178.142,79.811 -50.1417,53.1654 -75.1496,119.37 -75.1496,198.551 0,81.9528 24.126,149.165 72.6299,201.638 48.5039,52.3465 107.528,78.6772 176.819,78.6772 31.874,0 61.8583,-6.17323 89.8898,-18.2047 27.9685,-11.9685 53.7953,-30.1102 77.6693,-54.1102l0 263.622zm-140.22 -314.457c-41.3228,0 -75.6535,-14.5512 -102.992,-43.7165 -27.3386,-29.1654 -41.0079,-66.4567 -41.0079,-112 0,-45.9843 13.8583,-83.6535 41.7008,-113.323 27.8425,-29.6693 62.1732,-44.4724 102.803,-44.4724 42.0157,0 76.8504,14.6772 104.504,43.8425 27.6535,28.9764 41.5118,67.1496 41.5118,114.457 0,46.1732 -13.8583,83.7165 -41.5118,112.189 -27.6535,28.6614 -62.6772,43.0236 -105.008,43.0236z"
     id="path113" /></glyph>
   <glyph
   unicode="s"
   horiz-adv-x="439"
   id="glyph119"><path
     d="M392.504 457.008l-82.5197 -82.5197c-33.5118,33.1969 -63.811,49.8268 -91.1496,49.8268 -14.9921,0 -26.8346,-3.14961 -35.1496,-9.51181 -8.50394,-6.29921 -12.8504,-14.2992 -12.8504,-23.622 0,-7.1811 2.83465,-13.8583 8.18898,-19.8425 5.29134,-5.98425 18.6457,-14.1732 39.811,-24.6929l48.6929 -24.315c51.4646,-25.5118 86.8031,-51.3386 105.953,-77.6693 19.2126,-26.3307 28.8504,-57.3228 28.8504,-92.8504 0,-47.1181 -17.3228,-86.4882 -51.9685,-118.173 -34.7087,-31.4961 -81.1969,-47.3071 -139.339,-47.3071 -77.5433,0 -139.339,30.3622 -185.701,90.8346l82.2047 89.3228c15.4961,-18.1417 33.8268,-33.0079 54.8031,-44.1575 20.9764,-11.1496 39.685,-16.8189 56,-16.8189 17.5118,0 31.685,4.15748 42.3307,12.6614 10.8346,8.50394 16.189,18.1417 16.189,29.3543 0,20.4724 -19.3386,40.5039 -58.0157,59.9685l-44.9764 22.4882c-86.0472,43.3386 -128.882,97.5118 -128.882,162.52 0,42.0157 16.189,77.9843 48.5039,107.654 32.378,29.8583 73.8268,44.8504 124.346,44.8504 34.5197,0 66.8346,-7.68504 97.3228,-22.8661 30.4882,-15.1181 56.378,-36.7874 77.3543,-65.1339z"
     id="path117" /></glyph>
   <glyph
   unicode="w"
   horiz-adv-x="799"
   id="glyph123"><path
     d="M8.31496 531.339l130.331 0 107.024 -302.362 115.15 302.362 79.685 0 112.693 -298.835 106.961 298.835 131.339 0 -193.827 -531.339 -84.4724 0 -113.386 302.677 -116.661 -302.677 -83.4646 0 -191.37 531.339z"
     id="path121" /></glyph>
   <glyph
   unicode="t"
   horiz-adv-x="299"
   id="glyph127"><path
     d="M83.5276 726.992l132.787 0 0 -195.654 78.9921 0 0 -114.835 -78.9921 0 0 -416.504 -132.787 0 0 416.504 -68.3465 0 0 114.835 68.3465 0 0 195.654z"
     id="path125" /></glyph>
   <glyph
   unicode="y"
   horiz-adv-x="580"
   id="glyph131"><path
     d="M8.31496 531.339l136.189 0 138.142 -333.48 152.378 333.48 136.819 0 -333.039 -725.669 -137.827 0 109.543 233.827 -202.205 491.843z"
     id="path129" /></glyph>
   <glyph
   unicode="q"
   horiz-adv-x="660"
   id="glyph135"><path
     d="M459.979 531.325l132.843 0 0 -725.665 -132.843 0 0 250.504c-25.9921,-24.8391 -52.1284,-42.5195 -78.3127,-53.4736 -26.3284,-10.8581 -54.6747,-16.3352 -85.3272,-16.3352 -68.6557,0 -127.991,26.6647 -178.149,79.8021 -50.2066,53.1854 -75.1898,119.343 -75.1898,198.52 0,82.0121 24.1664,149.178 72.6434,201.643 48.525,52.3686 107.524,78.697 176.852,78.697 31.8536,0 61.8334,-6.19775 89.8434,-18.1609 28.01,-12.0111 53.8099,-30.172 77.64,-54.1943l0 58.6624zm-140.146 -109.494c-41.3183,0 -75.6702,-14.5095 -103.008,-43.6725 -27.3374,-29.1631 -40.982,-66.4937 -40.982,-111.992 0,-45.9787 13.8368,-83.6456 41.6547,-113.337 27.8178,-29.6435 62.1697,-44.4893 102.815,-44.4893 42.039,0 76.8713,14.6536 104.497,43.8167 27.6737,29.0189 41.5105,67.1663 41.5105,114.49 0,46.1708 -13.8368,83.6937 -41.5105,112.184 -27.6256,28.6826 -62.6501,42.9999 -104.977,42.9999z"
     id="path133" /></glyph>
   <glyph
   unicode="r"
   horiz-adv-x="319"
   id="glyph139"><path
     d="M36.1776 531.325l114.154 0 0 -66.9742c12.4916,26.3284 28.8268,46.315 49.3418,59.9596 20.515,13.8368 42.9999,20.7072 67.5026,20.7072 17.1519,0 35.1686,-4.70837 54.1462,-13.6927l-41.5105 -114.827c-15.6625,7.83127 -28.4904,11.6748 -38.6278,11.6748 -20.515,0 -37.8591,-12.6838 -52.0323,-38.0033 -14.1732,-25.5117 -21.1396,-75.1898 -21.1396,-149.515l0.480446 -25.7999 0 -214.855 -132.315 0 0 531.325z"
     id="path137" /></glyph>
  </font>
</defs>
</svg>
